english
☰ сategories ☆☆☆ ◴new movies
Share twitter

Foot Fetish Therapist Follow Up Visit POV Foot Fetish

MetaData[+]

[STREAM]
index=0
codec_name=h264
codec_long_name=H.264 / AVC / MPEG-4 AVC / MPEG-4 part 10
profile=Constrained Baseline
codec_type=video
codec_time_base=1001/60000
codec_tag_string=avc1
codec_tag=0x31637661
width=1280
height=720
coded_width=1280
coded_height=720
has_b_frames=0
sample_aspect_ratio=1:1
display_aspect_ratio=16:9
pix_fmt=yuv420p
level=31
color_range=N/A
color_space=unknown
color_transfer=unknown
color_primaries=unknown
chroma_location=left
timecode=N/A
refs=1
is_avc=true
nal_length_size=4
id=N/A
r_frame_rate=30000/1001
avg_frame_rate=30000/1001
time_base=1/30000
start_pts=1001
start_time=0.033367
duration_ts=3208205
duration=106.940167
bit_rate=2048112
max_bit_rate=N/A
bits_per_raw_sample=8
nb_frames=3205
nb_read_frames=N/A
nb_read_packets=N/A
DISPOSITION:default=1
DISPOSITION:dub=0
DISPOSITION:original=0
DISPOSITION:comment=0
DISPOSITION:lyrics=0
DISPOSITION:karaoke=0
DISPOSITION:forced=0
DISPOSITION:hearing_impaired=0
DISPOSITION:visual_impaired=0
DISPOSITION:clean_effects=0
DISPOSITION:attached_pic=0
TAG:creation_time=1970-01-01 00:00:00
TAG:language=eng
TAG:handler_name=VideoHandler
[/STREAM]
[STREAM]
index=1
codec_name=aac
codec_long_name=AAC (Advanced Audio Coding)
profile=LC
codec_type=audio
codec_time_base=1/44100
codec_tag_string=mp4a
codec_tag=0x6134706d
sample_fmt=fltp
sample_rate=44100
channels=2
channel_layout=stereo
bits_per_sample=0
id=N/A
r_frame_rate=0/0
avg_frame_rate=0/0
time_base=1/44100
start_pts=0
start_time=0.000000
duration_ts=4719616
duration=107.020771
bit_rate=53513
max_bit_rate=N/A
bits_per_raw_sample=N/A
nb_frames=4609
nb_read_frames=N/A
nb_read_packets=N/A
DISPOSITION:default=1
DISPOSITION:dub=0
DISPOSITION:original=0
DISPOSITION:comment=0
DISPOSITION:lyrics=0
DISPOSITION:karaoke=0
DISPOSITION:forced=0
DISPOSITION:hearing_impaired=0
DISPOSITION:visual_impaired=0
DISPOSITION:clean_effects=0
DISPOSITION:attached_pic=0
TAG:creation_time=1970-01-01 00:00:00
TAG:language=eng
TAG:handler_name=SoundHandler
[/STREAM]
[STREAM]
index=2
codec_name=unknown
codec_long_name=unknown
profile=unknown
codec_type=data
codec_tag_string=rtp
codec_tag=0x20707472
id=N/A
r_frame_rate=0/0
avg_frame_rate=0/0
time_base=1/90000
start_pts=0
start_time=0.000000
duration_ts=9849150
duration=109.435000
bit_rate=94185
max_bit_rate=N/A
bits_per_raw_sample=N/A
nb_frames=3205
nb_read_frames=N/A
nb_read_packets=N/A
DISPOSITION:default=1
DISPOSITION:dub=0
DISPOSITION:original=0
DISPOSITION:comment=0
DISPOSITION:lyrics=0
DISPOSITION:karaoke=0
DISPOSITION:forced=0
DISPOSITION:hearing_impaired=0
DISPOSITION:visual_impaired=0
DISPOSITION:clean_effects=0
DISPOSITION:attached_pic=0
TAG:creation_time=2015-01-13 18:44:20
TAG:language=und
TAG:handler_name=GPAC ISO Hint Handler
[/STREAM]
[STREAM]
index=3
codec_name=unknown
codec_long_name=unknown
profile=unknown
codec_type=data
codec_tag_string=rtp
codec_tag=0x20707472
id=N/A
r_frame_rate=0/0
avg_frame_rate=0/0
time_base=1/44100
start_pts=0
start_time=0.000000
duration_ts=4826084
duration=109.435011
bit_rate=7255
max_bit_rate=N/A
bits_per_raw_sample=N/A
nb_frames=540
nb_read_frames=N/A
nb_read_packets=N/A
DISPOSITION:default=1
DISPOSITION:dub=0
DISPOSITION:original=0
DISPOSITION:comment=0
DISPOSITION:lyrics=0
DISPOSITION:karaoke=0
DISPOSITION:forced=0
DISPOSITION:hearing_impaired=0
DISPOSITION:visual_impaired=0
DISPOSITION:clean_effects=0
DISPOSITION:attached_pic=0
TAG:creation_time=2015-01-13 18:44:20
TAG:language=und
TAG:handler_name=GPAC ISO Hint Handler
[/STREAM]
[FORMAT]
nb_streams=4
nb_programs=0
format_name=mov,mp4,m4a,3gp,3g2,mj2
format_long_name=QuickTime / MOV
start_time=0.000000
duration=109.435000
size=29514763
bit_rate=2157610
probe_score=100
TAG:major_brand=isom
TAG:minor_version=512
TAG:compatible_brands=isomiso2avc1mp41
TAG:creation_time=1970-01-01 00:00:00
TAG:encoder=Lavf53.5.0
[/FORMAT]
Date: 1/14/2015
User: FootDomination
Size:1280 x 720
Views:30,000+ views
Resolution:720P
Duration:1:49
Categories: foot fetish latin femdom
Tags: pov fetish foot visit therapist follow

Comment

Haruka Sanada - pornstar of the hour
watch the video
watch pictures