english
☰ сategories ☆☆☆ ◴new movies
Share twitter

fetish serf fastened and thrashing fetish

MetaData[+]

[STREAM]
index=0
codec_name=h264
codec_long_name=H.264 / AVC / MPEG-4 AVC / MPEG-4 part 10
profile=High
codec_type=video
codec_time_base=11017/660900
codec_tag_string=avc1
codec_tag=0x31637661
width=720
height=540
coded_width=720
coded_height=540
has_b_frames=2
sample_aspect_ratio=1:1
display_aspect_ratio=4:3
pix_fmt=yuv420p
level=31
color_range=N/A
color_space=unknown
color_transfer=unknown
color_primaries=unknown
chroma_location=left
timecode=N/A
refs=1
is_avc=true
nal_length_size=4
id=N/A
r_frame_rate=30/1
avg_frame_rate=330450/11017
time_base=1/30
start_pts=2
start_time=0.066667
duration_ts=11017
duration=367.233333
bit_rate=509020
max_bit_rate=N/A
bits_per_raw_sample=8
nb_frames=11015
nb_read_frames=N/A
nb_read_packets=N/A
DISPOSITION:default=1
DISPOSITION:dub=0
DISPOSITION:original=0
DISPOSITION:comment=0
DISPOSITION:lyrics=0
DISPOSITION:karaoke=0
DISPOSITION:forced=0
DISPOSITION:hearing_impaired=0
DISPOSITION:visual_impaired=0
DISPOSITION:clean_effects=0
DISPOSITION:attached_pic=0
TAG:creation_time=1970-01-01 00:00:00
TAG:language=und
TAG:handler_name=VideoHandler
[/STREAM]
[STREAM]
index=1
codec_name=aac
codec_long_name=AAC (Advanced Audio Coding)
profile=LC
codec_type=audio
codec_time_base=1/48000
codec_tag_string=mp4a
codec_tag=0x6134706d
sample_fmt=fltp
sample_rate=48000
channels=2
channel_layout=stereo
bits_per_sample=0
id=N/A
r_frame_rate=0/0
avg_frame_rate=0/0
time_base=1/48000
start_pts=0
start_time=0.000000
duration_ts=17622000
duration=367.125000
bit_rate=64170
max_bit_rate=N/A
bits_per_raw_sample=N/A
nb_frames=17209
nb_read_frames=N/A
nb_read_packets=N/A
DISPOSITION:default=1
DISPOSITION:dub=0
DISPOSITION:original=0
DISPOSITION:comment=0
DISPOSITION:lyrics=0
DISPOSITION:karaoke=0
DISPOSITION:forced=0
DISPOSITION:hearing_impaired=0
DISPOSITION:visual_impaired=0
DISPOSITION:clean_effects=0
DISPOSITION:attached_pic=0
TAG:creation_time=1970-01-01 00:00:00
TAG:language=und
TAG:handler_name=SoundHandler
[/STREAM]
[STREAM]
index=2
codec_name=unknown
codec_long_name=unknown
profile=unknown
codec_type=data
codec_tag_string=rtp
codec_tag=0x20707472
id=N/A
r_frame_rate=0/0
avg_frame_rate=0/0
time_base=1/90000
start_pts=0
start_time=0.000000
duration_ts=33050970
duration=367.233000
bit_rate=24303
max_bit_rate=N/A
bits_per_raw_sample=N/A
nb_frames=11015
nb_read_frames=N/A
nb_read_packets=N/A
DISPOSITION:default=1
DISPOSITION:dub=0
DISPOSITION:original=0
DISPOSITION:comment=0
DISPOSITION:lyrics=0
DISPOSITION:karaoke=0
DISPOSITION:forced=0
DISPOSITION:hearing_impaired=0
DISPOSITION:visual_impaired=0
DISPOSITION:clean_effects=0
DISPOSITION:attached_pic=0
TAG:creation_time=2013-07-25 21:53:32
TAG:language=und
TAG:handler_name=GPAC ISO Hint Handler
[/STREAM]
[STREAM]
index=3
codec_name=unknown
codec_long_name=unknown
profile=unknown
codec_type=data
codec_tag_string=rtp
codec_tag=0x20707472
id=N/A
r_frame_rate=0/0
avg_frame_rate=0/0
time_base=1/48000
start_pts=0
start_time=0.000000
duration_ts=17627184
duration=367.233000
bit_rate=8359
max_bit_rate=N/A
bits_per_raw_sample=N/A
nb_frames=2212
nb_read_frames=N/A
nb_read_packets=N/A
DISPOSITION:default=1
DISPOSITION:dub=0
DISPOSITION:original=0
DISPOSITION:comment=0
DISPOSITION:lyrics=0
DISPOSITION:karaoke=0
DISPOSITION:forced=0
DISPOSITION:hearing_impaired=0
DISPOSITION:visual_impaired=0
DISPOSITION:clean_effects=0
DISPOSITION:attached_pic=0
TAG:creation_time=2013-07-25 21:53:32
TAG:language=und
TAG:handler_name=GPAC ISO Hint Handler
[/STREAM]
[FORMAT]
nb_streams=4
nb_programs=0
format_name=mov,mp4,m4a,3gp,3g2,mj2
format_long_name=QuickTime / MOV
start_time=0.000000
duration=367.233000
size=28150143
bit_rate=613237
probe_score=100
TAG:major_brand=isom
TAG:minor_version=512
TAG:compatible_brands=isomiso2avc1mp41
TAG:creation_time=1970-01-01 00:00:00
TAG:encoder=Lavf53.5.0
[/FORMAT]
Date: 5/11/2013
User: Dana
Size:0 x 0
Views:823 views
Resolution:540P
Duration:6:07
Categories: swallow
Tags: fetish

Comment

Don Whoe - pornstar of the hour
watch the video
watch pictures