english
☰ сategories ☆☆☆ ◴new movies
Share twitter

porno amateur bondage shibari soumise sm sandy bdsm fetish

MetaData[+]

[STREAM]
index=0
codec_name=h264
codec_long_name=H.264 / AVC / MPEG-4 AVC / MPEG-4 part 10
profile=Constrained Baseline
codec_type=video
codec_time_base=1/48
codec_tag_string=avc1
codec_tag=0x31637661
width=240
height=180
coded_width=240
coded_height=180
has_b_frames=0
sample_aspect_ratio=39:40
display_aspect_ratio=13:10
pix_fmt=yuv420p
level=12
color_range=N/A
color_space=unknown
color_transfer=unknown
color_primaries=unknown
chroma_location=left
timecode=N/A
refs=1
is_avc=true
nal_length_size=4
id=N/A
r_frame_rate=24/1
avg_frame_rate=24/1
time_base=1/24
start_pts=0
start_time=0.000000
duration_ts=19204
duration=800.166667
bit_rate=190963
max_bit_rate=N/A
bits_per_raw_sample=8
nb_frames=19204
nb_read_frames=N/A
nb_read_packets=N/A
DISPOSITION:default=1
DISPOSITION:dub=0
DISPOSITION:original=0
DISPOSITION:comment=0
DISPOSITION:lyrics=0
DISPOSITION:karaoke=0
DISPOSITION:forced=0
DISPOSITION:hearing_impaired=0
DISPOSITION:visual_impaired=0
DISPOSITION:clean_effects=0
DISPOSITION:attached_pic=0
TAG:creation_time=1970-01-01 00:00:00
TAG:language=und
TAG:handler_name=VideoHandler
[/STREAM]
[STREAM]
index=1
codec_name=aac
codec_long_name=AAC (Advanced Audio Coding)
profile=LC
codec_type=audio
codec_time_base=1/44100
codec_tag_string=mp4a
codec_tag=0x6134706d
sample_fmt=fltp
sample_rate=44100
channels=2
channel_layout=stereo
bits_per_sample=0
id=N/A
r_frame_rate=0/0
avg_frame_rate=0/0
time_base=1/44100
start_pts=0
start_time=0.000000
duration_ts=35289088
duration=800.206077
bit_rate=95998
max_bit_rate=N/A
bits_per_raw_sample=N/A
nb_frames=34462
nb_read_frames=N/A
nb_read_packets=N/A
DISPOSITION:default=1
DISPOSITION:dub=0
DISPOSITION:original=0
DISPOSITION:comment=0
DISPOSITION:lyrics=0
DISPOSITION:karaoke=0
DISPOSITION:forced=0
DISPOSITION:hearing_impaired=0
DISPOSITION:visual_impaired=0
DISPOSITION:clean_effects=0
DISPOSITION:attached_pic=0
TAG:creation_time=1970-01-01 00:00:00
TAG:language=und
TAG:handler_name=SoundHandler
[/STREAM]
[STREAM]
index=2
codec_name=unknown
codec_long_name=unknown
profile=unknown
codec_type=data
codec_tag_string=rtp
codec_tag=0x20707472
id=N/A
r_frame_rate=0/0
avg_frame_rate=0/0
time_base=1/90000
start_pts=0
start_time=0.000000
duration_ts=72024750
duration=800.275000
bit_rate=7382
max_bit_rate=N/A
bits_per_raw_sample=N/A
nb_frames=19204
nb_read_frames=N/A
nb_read_packets=N/A
DISPOSITION:default=1
DISPOSITION:dub=0
DISPOSITION:original=0
DISPOSITION:comment=0
DISPOSITION:lyrics=0
DISPOSITION:karaoke=0
DISPOSITION:forced=0
DISPOSITION:hearing_impaired=0
DISPOSITION:visual_impaired=0
DISPOSITION:clean_effects=0
DISPOSITION:attached_pic=0
TAG:creation_time=2012-01-16 03:20:08
TAG:language=und
TAG:handler_name=GPAC ISO Hint Handler
[/STREAM]
[STREAM]
index=3
codec_name=unknown
codec_long_name=unknown
profile=unknown
codec_type=data
codec_tag_string=rtp
codec_tag=0x20707472
id=N/A
r_frame_rate=0/0
avg_frame_rate=0/0
time_base=1/44100
start_pts=0
start_time=0.000000
duration_ts=35292128
duration=800.275011
bit_rate=7893
max_bit_rate=N/A
bits_per_raw_sample=N/A
nb_frames=7445
nb_read_frames=N/A
nb_read_packets=N/A
DISPOSITION:default=1
DISPOSITION:dub=0
DISPOSITION:original=0
DISPOSITION:comment=0
DISPOSITION:lyrics=0
DISPOSITION:karaoke=0
DISPOSITION:forced=0
DISPOSITION:hearing_impaired=0
DISPOSITION:visual_impaired=0
DISPOSITION:clean_effects=0
DISPOSITION:attached_pic=0
TAG:creation_time=2012-01-16 03:20:08
TAG:language=und
TAG:handler_name=GPAC ISO Hint Handler
[/STREAM]
[FORMAT]
nb_streams=4
nb_programs=0
format_name=mov,mp4,m4a,3gp,3g2,mj2
format_long_name=QuickTime / MOV
start_time=0.000000
duration=800.275000
size=30651401
bit_rate=306408
probe_score=100
TAG:major_brand=isom
TAG:minor_version=512
TAG:compatible_brands=isomiso2avc1mp41
TAG:creation_time=1970-01-01 00:00:00
TAG:encoder=Lavf53.24.2
[/FORMAT]
Date: 2/6/2012
User: soumise
Size:240 x 180
Views:99,000+ views
Resolution:480P
Duration:13:20
Categories: amateur bondage euro
Tags: amateur homemade tied european bdsm domination sadism masochism
Mirrors (Alternate names): 4

Comment

Erika Kane - pornstar of the hour
watch the video
watch pictures